Loading...
Error
 

Скачать торрент Звездные рыцари со Звезды изгоев / Seihou Bukyou Outlaw Star (Хонго Мицуру) [TV][1 из 26][RAW][RUS(int) + JAP + SUB(int)][1998 г., приключения, комедия, фантастика, BDRip][1080p] MVO [3df_voice]

 
Автор Сообщение

ReBootRus

post 07-Ноя-21 14:39

pic
Звездные рыцари со Звезды изгоев
Seihou Bukyou Outlaw Star

Год выпуска: c 09.01.1998 по 26.06.1998
Страна: Япония
Жанр: приключения, комедия, фантастика
Тип: TV
Продолжительность: 26 x ~ 00:24:00
Режиссер: Хонго Мицуру
Автор оригинала: Ито Такэхико
Студия: Sunrise
Озвучка: Многоголосая, студия 3df_voice (г. Тула), 2021г.
На русский роли озвучивали: Глеб Янышев, Мария Яковлева, Александр Аносов, Ольга Кужельная, Альбина Штанина, Никита Кузнецов, Евгения Андрианова, Светлана Шабаль, Андрей Соболевский, Мария Чернышёва, Евгений Бородаенко, Мария Лебедева и Павел Тимонин.
Сведение и мастеринг: Александр Шмат.
pic
Субтитры: русские полные
от Сергей 'Nomad' Рыгин (.ass)
от Praded (.ssa)
Описание:
Во вселенной есть три силы: армия, пираты и вольные. Легендарная вольная Хильда уводит из-под носа пиратов их секретную разработку – космический корабль XGP. К кораблю прилагается биоандроид – конечно же выполненный в виде симпатичной девушки – являющийся навигационной системой корабля. По слухам, с помощью XGP можно найти некий мифический клад – Лейлайн галактики, но что этот Лейлайн из себя представляет никому не известно. По воле случая корабль и девушка попадают к Джину Старвинду, который в космосе был один раз, давно и неправда. Джин промышляет охотой за головами и ремонтом техники вместе со своим напарником Джимом. Джим Хоукинг – 11-летний хакер, менеджер предприятия «Старвинд и Хоукинг» и единственный обладатель здравого смысла во всей честной компании. Постепенно к ним присоединяются Эйша Кланклан из расы кошачьих оборотней и Сумеречная Судзука, занимающаяся убийствами по найму.
Информационные ссылки: AniDB || World Art || MAL || SHIKIMORI
Релиз/Энкод: Moozzi2
Качество: BDRip 1080p
Тип видео: без хардсаба
Формат: mkv
Видео: H.264/AVC, 8-bit, 1440x1080 (4:3), 23,976 кадр/с, 10 Мбит/с
Аудио RUS 3df_voice: FLAC, 48 kHz, 894 Кбит/с, 2 ch
Аудио JAP: FLAC, 48 kHz, 615 Kбит/с, 6 ch
Скриншоты
Внимание! Раздача ведётся путём добавления новых серий
Раздача ведётся путём добавления новых серий, при каждом добавлении создаётся новый торрент. Чтобы начать докачку новой серии, пользователям необходимо сделать следующее:
- Остановить скачивание.
- Удалить старый торрент у себя из клиента (старые серии удалять не надо).
- Скачать новый торрент и запустить его у себя в клиенте вместо старого, при этом указать клиенту путь в старую папку куда и должно происходить скачивание новых серий.
Ваш клиент при этом должен произвести хеширование (проверку) старой папки (если не производит сам - помогите ему сделать это), и будет докачивать только те серии которых у вас ещё нет. Старые серии при этом не удаляются, а продолжают раздаваться!
Если вы уже удалили старые серии, то предотвратить повторную закачку старых серий можно, отжав галочку в соответствующих местах при запуске нового торрента. По возможности, желательно не удалять старые серии как можно дольше, чтобы релизер не столько продолжал раздавать старые серии, а смог сконцентрироваться на новых.
Список эпизодов
01. Outlaw World [выпуск от 09.01.1998]
02. Star of Desire [выпуск от 16.01.1998]
03. Into Burning Space [выпуск от 23.01.1998]
04. When the Hot Ice Melts [выпуск от 30.01.1998]
05. Beast Girl, Ready to Pounce [выпуск от 06.02.1998]
06. Beautiful Assassin [выпуск от 13.02.1998]
07. Creeping Evil [выпуск от 20.02.1998]
08. Forced Departure [выпуск от 27.02.1998]
09. A Journey of Adventure...Huh? [выпуск от 06.03.1998]
10. Gathering for the Space Race [выпуск от 13.03.1998]
11. Adrift in Subspace [выпуск от 20.03.1998]
12. Mortal Combat with the El Dorado [выпуск от 27.03.1998]
13. Advance Guard from an Alien World [выпуск от 03.04.1998]
14. Final Countdown [выпуск от 10.04.1998]
15. The Seven Emerge [выпуск от 17.04.1998]
16. Demon of the Water Planet [выпуск от 18.12.1998]
17. Between Life and Machine [выпуск от 24.04.1998]
18. The Strongest Woman in the Universe [выпуск от 01.05.1998]
19. Law and Lawlessness [выпуск от 08.05.1998]
20. Cats and Girls and Space Ships [выпуск от 15.05.1998]
21. Grave of the Dragon [выпуск от 22.05.1998]
22. Gravity Jailbreak [выпуск от 29.05.1998]
23. Hot Springs Planet Tenrei [выпуск от 25.04.1999]
24. Cutting the Galactic Leyline [выпуск от 12.06.1998]
25. The Maze of Despair [выпуск от 19.06.1998]
26. Return to Space [выпуск от 26.06.1998]
MediaInfo

Код:

Общее
Уникальный идентификатор                 : 69969615029687701967946119297156086487 (0x34A3A85D9AC49AE0E6F5C06FEBFD7AD7)
Полное имя                               : Seihou Bukyou Outlaw Star TV BDRip 1080p [3df_voice] [8 bit Moozzi2]\Seihou Bukyou Outlaw Star - 01 [3df_voice].mkv
Формат                                   : Matroska
Версия формата                           : Version 4
Размер файла                             : 1,94 Гбайт
Продолжительность                        : 24 м. 7 с.
Режим общего битрейта                    : Переменный
Общий поток                              : 11,5 Мбит/сек
Дата кодирования                         : UTC 2021-11-06 11:26:37
Программа кодирования                    : mkvmerge v44.0.0 ('Domino') 64-bit
Библиотека кодирования                   : libebml v1.3.10 + libmatroska v1.5.2

Видео
Идентификатор                            : 1
Формат                                   : AVC
Формат/Информация                        : Advanced Video Codec
Профиль формата                          : [email protected]
Настройки формата                        : CABAC / 4 Ref Frames
Параметр CABAC формата                   : Да
Параметр RefFrames формата               : 4 кадра
Идентификатор кодека                     : V_MPEG4/ISO/AVC
Продолжительность                        : 24 м. 7 с.
Битрейт                                  : 10 000 Кбит/сек
Ширина                                   : 1 440 пикселей
Высота                                   : 1 080 пикселей
Соотношение сторон                       : 4:3
Режим частоты кадров                     : Постоянный
Частота кадров                           : 23,976 (24000/1001) кадра/сек
Цветовое пространство                    : YUV
Субдискретизация насыщенности            : 4:2:0
Битовая глубина                          : 8 бит
Тип развёртки                            : Прогрессивная
Бит/(Пиксели*Кадры)                      : 0.268
Размер потока                            : 1,69 Гбайт (87%)
Библиотека кодирования                   : x264 core 148 r2638 7599210
Настройки программы                      : cabac=1 / ref=4 / deblock=1:-1:-1 / analyse=0x3:0x133 / me=umh / subme=9 / psy=1 / psy_rd=0.70:0.00 / mixed_ref=1 / me_range=24 / chroma_me=1 / trellis=0 / 8x8dct=1 / cqm=0 / deadzone=21,11 / fast_pskip=0 / chroma_qp_offset=-2 / threads=12 / lookahead_threads=1 / sliced_threads=0 / nr=0 / decimate=1 / interlaced=0 / bluray_compat=0 / constrained_intra=0 / bframes=3 / b_pyramid=2 / b_adapt=2 / b_bias=0 / direct=1 / weightb=1 / open_gop=0 / weightp=2 / keyint=240 / keyint_min=23 / scenecut=40 / intra_refresh=0 / rc_lookahead=40 / rc=2pass / mbtree=1 / bitrate=10000 / ratetol=1.0 / qcomp=0.60 / qpmin=0 / qpmax=69 / qpstep=4 / cplxblur=20.0 / qblur=0.5 / ip_ratio=1.40 / aq=1:1.00
Default                                  : Да
Forced                                   : Нет

Аудио #1
Идентификатор                            : 2
Формат                                   : FLAC
Формат/Информация                        : Free Lossless Audio Codec
Идентификатор кодека                     : A_FLAC
Продолжительность                        : 24 м. 7 с.
Вид битрейта                             : Переменный
Битрейт                                  : 894 Кбит/сек
Каналы                                   : 2 канала
Channel layout                           : L R
Частота                                  : 48,0 КГц
Частота кадров                           : 41,667 кадра/сек (1152 SPF)
Битовая глубина                          : 16 бит
Метод сжатия                             : Без потерь
Размер потока                            : 154 Мбайт (8%)
Заголовок                                : 3df_voice
Библиотека кодирования                   : libFLAC 1.3.0 (UTC 2013-05-26)
Язык                                     : Russian
Default                                  : Да
Forced                                   : Нет

Аудио #2
Идентификатор                            : 3
Формат                                   : FLAC
Формат/Информация                        : Free Lossless Audio Codec
Идентификатор кодека                     : A_FLAC
Продолжительность                        : 24 м. 7 с.
Вид битрейта                             : Переменный
Битрейт                                  : 615 Кбит/сек
Каналы                                   : 2 канала
Channel layout                           : L R
Частота                                  : 48,0 КГц
Частота кадров                           : 11,719 кадров/сек (4096 SPF)
Битовая глубина                          : 16 бит
Метод сжатия                             : Без потерь
Размер потока                            : 106 Мбайт (5%)
Библиотека кодирования                   : libFLAC 1.3.1 (UTC 2014-11-25)
Язык                                     : Japanese
Default                                  : Нет
Forced                                   : Нет

Текст #1
Идентификатор                            : 4
Формат                                   : ASS
Идентификатор кодека                     : S_TEXT/ASS
Идентификатор кодека/Информация          : Advanced Sub Station Alpha
Продолжительность                        : 23 м. 50 с.
Битрейт                                  : 145 бит/сек
Count of elements                        : 332
Метод сжатия                             : Без потерь
Размер потока                            : 25,4 Кбайт (0%)
Заголовок                                : Nomad
Язык                                     : Russian
Default                                  : Нет
Forced                                   : Нет

Текст #2
Идентификатор                            : 5
Формат                                   : SSA
Идентификатор кодека                     : S_TEXT/SSA
Идентификатор кодека/Информация          : Sub Station Alpha
Продолжительность                        : 23 м. 55 с.
Битрейт                                  : 126 бит/сек
Count of elements                        : 314
Метод сжатия                             : Без потерь
Размер потока                            : 22,1 Кбайт (0%)
Заголовок                                : Praded
Язык                                     : Russian
Default                                  : Нет
Forced                                   : Нет

Seihou Bukyou Outlaw Star TV BDRip 1080p (3df_voice) (8 bit Moozzi2).torrent
Трекер: Зарегистрирован

magnet ссылка

 


Скачать .torrent

20 KB

Статус: проверено (by Snowden в 07-Ноя-21 16:13)
Зарегистрирован: 07-Ноя-21 14:39
Скачан: 31 раз
Размер: 1.94 GB | 
Поблагодарили:
Скачать Звездные рыцари со Звезды изгоев / Seihou Bukyou Outlaw Star (Хонго Мицуру) [TV][1 из 26][RAW][RUS(int) + JAP + SUB(int)][1998 г., приключения, комедия, фантастика, BDRip][1080p] MVO [3df_voice] торрент
 


Похожие раздачи

Demanasik

post 08-Ноя-21 08:14 (спустя 17 часов)

хорошая вещь.
Спасибо!

добавлено спустя 14 часов 44 минуты:

хорошая вещь.
Спасибо!

xxxNikexxx

post 09-Ноя-21 04:25 (спустя 20 часов)

когда продолжение будет? ))

Текущее время: 04-Дек 20:45

Часовой пояс: GMT + 3



Вы не можете начинать темы
Вы не можете отвечать на сообщения
Вы не можете редактировать свои сообщения
Вы не можете удалять свои сообщения
Вы не можете голосовать в опросах
Вы не можете прикреплять файлы к сообщениям
Вы не можете скачивать файлы